#TITLE:Crazy Train;
#SUBTITLE:(3 Rail Remix);
#ARTIST:Madonna VS Ozzy;
#TITLETRANSLIT:;
#SUBTITLETRANSLIT:;
#ARTISTTRANSLIT:;
#CREDIT:;
#BANNER:Crazy Train-banner.png;
#BACKGROUND:Crazy Train-bg.png;
#LYRICSPATH:;
#CDTITLE:;
#MUSIC:Crazy Train.mp3;
#MUSICLENGTH:92.664;
#OFFSET:-0.100;
#SAMPLESTART:17.165;
#SAMPLELENGTH:12.000;
#SELECTABLE:YES;
#BPMS:0.000=139.560,99.500=138.600,168.000=139.540;
#STOPS:;
#BGCHANGES:;
#FIRSTBEAT:17.000;

#LASTBEAT:212.000;

#SONGFILENAME:Songs/ERICth The 3rd/Crazy Train/Crazy Train.sm;

#HASMUSIC:1;

#HASBANNER:1;


//---------------dance-single - MANIAC----------------
#NOTES:
     dance-single:
     MANIAC:
     hard:
     8:
     0.473,0.515,0.194,0.162,0.108,274.000,18.000,15.000,0.000,0.000:



0000
0000
0000
0000
,
0000
0000
0000
0000
,
0000
0000
0000
0000
,
0000
0000
0000
0000
,
0000
0010
0010
0010
,
1000
2000
0000
3000
,
0011
0001
0000
0000
0000
0000
0000
0000
,
1000
1000
0000
0000
0001
0001
0000
0000
,
0110
0100
0001
0000
1000
0000
0001
0000
,
1000
0002
0003
0000
,
1000
1000
0100
1000
0010
0100
0010
0100
,
0001
0001
0100
0001
1000
1000
0100
0010
,
1000
1000
0100
1000
0010
0100
0010
0100
,
0001
0001
0100
0001
1000
1000
0100
0010
,
1000
1000
0100
1000
0010
0100
0010
0100
,
0001
0001
0100
0001
1000
1000
0100
0010
,
1000
1000
0100
1000
0010
0100
0010
0100
,
0001
0001
0100
0001
1000
1000
0100
0010
,
0100
0000
0000
0100
0000
0000
0100
0000
0010
0000
0000
0010
0000
0000
0010
0000
,
1000
0000
0000
1000
0000
0000
1000
0000
0001
0000
0000
0001
0000
0000
0001
0000
,
1000
0200
0000
1000
0000
1300
0000
1100
,
0100
0000
0010
0000
0000
0000
0100
0000
0000
0000
1000
0001
0000
0000
0000
0000
,
1001
0000
0000
1000
0000
0000
1100
0000
0100
0000
0000
0110
0000
0000
0011
0000
,
0010
0000
0000
0100
0000
0000
0001
0000
1000
0000
0000
0100
0000
0000
0010
0000
,
0001
0200
0000
0010
0000
0310
0000
0220
,
0000
0000
0330
1001
,
1100
0000
0000
1000
0000
0000
1000
0000
0000
0000
1000
0000
1100
0000
0000
0000
,
0010
0001
1000
0100
1000
0010
0001
0020
,
0000
0000
0000
0000
0030
1000
1000
0000
,
0110
0000
0000
0000
0110
0000
0000
0010
0100
0000
0000
0000
0000
0000
0000
0000
,
0101
0000
0000
0001
0000
0000
0001
0000
0000
0000
0001
0000
0101
0000
0000
0000
,
0010
0100
0001
0100
0010
0100
1000
0200
,
0000
0000
0000
0000
0300
0000
0000
0000
0000
0000
0001
0000
1000
0100
0010
0000
,
0000
0220
0000
0000
0000
0000
0000
0000
0000
0000
0000
0000
0330
0000
0000
0000
,
1000
0100
1000
0010
0000
0010
0001
0000
,
0001
0010
1000
0010
0000
0010
1000
0000
,
1000
0100
1000
0010
0000
0010
0100
0000
,
0100
0001
0100
0001
0000
0001
1000
0000
,
1000
0000
0000
1000
0000
0000
1000
0000
0000
0000
1000
0000
0100
0000
0000
0000
,
0100
0000
0000
0100
0000
0000
0100
0000
0000
0000
0100
0000
0010
0000
0000
0000
,
0010
0000
0000
0010
0000
0000
0010
0000
0000
0000
0010
0000
0001
0000
0000
0000
,
0001
0000
0000
0001
0000
0000
0001
0000
0000
0000
0001
0000
0001
0000
0000
0000
,
0202
0000
0000
0303
,
1000
0000
0000
1000
0000
0000
0001
0100
0020
0000
0000
0000
0030
0000
0000
0000
,
0001
0001
0010
0100
1000
0001
0100
0010
,
0100
0100
0001
0100
0010
0010
1000
0100
,
0001
0001
0010
0100
1000
0001
0100
0010
,
0100
0100
0001
0100
0010
0010
1000
0100
,
0001
0001
0010
0100
1000
0001
0100
0010
,
0100
0100
0001
0100
0010
0010
1000
0100
,
0001
0001
0010
0100
1000
0001
0100
0010
,
0100
0100
0001
0100
0010
0010
1000
0100
,
2200
0000
0000
0000
,
3300
0000
0000
0000;

//---------------dance-single - ANOTHER----------------
#NOTES:
     dance-single:
     ANOTHER:
     medium:
     5:
     0.365,0.429,0.054,0.086,0.000,224.000,5.000,8.000,0.000,0.000:



0000
0000
0000
0000
,
0000
0000
0000
0000
,
0000
0000
0000
0000
,
0000
0000
0000
0000
,
0000
0100
0100
0100
,
0020
0000
0000
0000
0000
0000
0000
0030
,
0001
1000
0100
0100
,
1000
0010
0100
0001
,
1000
0010
0010
0020
,
0000
0000
0000
0000
0000
0000
0000
0030
,
1000
0000
0100
0000
1000
0010
1000
0000
,
0001
1000
0001
0000
0100
1000
0100
0000
,
0010
0001
1000
0001
,
0010
0001
0010
0000
0001
0100
0001
1000
,
0001
0000
0100
0000
0010
0000
0100
1000
,
0010
0100
0010
0000
0001
0000
0001
1000
,
0001
0000
0100
0000
0010
0000
0010
0001
,
0100
0001
0100
0000
0001
0100
0001
0000
,
1001
0100
0010
0010
,
1000
0001
0100
0010
,
1000
0100
0010
0100
,
1000
0001
1000
0010
,
0100
0001
1000
0100
,
0010
0001
1000
0001
,
0002
0000
1000
1000
,
2003
0000
0000
0010
,
3010
0100
0010
0100
,
1001
0000
1100
1100
,
1000
0001
0010
0100
,
0100
0010
0002
0000
,
1003
0100
0010
0010
,
0100
0000
0100
0100
0100
0010
0000
0000
,
0001
1000
0010
0100
,
0001
1000
0100
1000
,
0100
1000
0100
1000
0100
1000
0100
0000
,
0001
0100
0001
0100
0001
0100
0001
0000
,
0100
1000
0100
1000
0100
1000
0100
0000
,
0001
0100
0001
0100
0001
0100
0001
0000
,
0010
1000
0010
1000
0010
1000
0010
0000
,
0001
0010
0001
0010
0001
0010
0001
0000
,
0010
1000
0010
1000
0010
1000
0010
0000
,
0001
0010
0001
0010
0001
0000
0001
0000
,
2002
0000
0000
0000
,
0000
0000
0000
3003
,
0100
0000
0010
0000
1000
0100
1000
0000
,
0010
1000
0100
0000
0010
1000
0100
0000
,
0010
0000
0001
0000
0100
0001
0100
0000
,
0010
0001
0100
0000
0010
0001
0100
0000
,
0001
0000
1000
0000
0100
1000
0010
0000
,
0100
0010
0001
0000
0100
0001
0010
0000
,
0100
0000
1000
0000
0010
1000
0010
1000
,
0010
1000
0001
1000
0010
1000
0010
1000
,
0002
0000
0000
0000
,
0003
0000
0000
0000;

//---------------dance-single - BASIC----------------
#NOTES:
     dance-single:
     BASIC:
     easy:
     2:
     0.187,0.343,0.216,0.108,0.000,91.000,20.000,10.000,0.000,0.000:



0000
0000
0000
0000
,
0000
0000
0000
0000
,
0000
0000
0000
0000
,
0000
0000
0000
0000
,
0000
0001
0001
0002
,
0000
0003
0000
0000
,
0000
0000
0000
0000
,
0000
0000
0000
0000
,
0000
1000
1000
2000
,
0000
0000
3000
0000
,
0001
0000
1000
0000
,
0001
0100
0001
0100
,
0010
0000
0100
0000
,
0010
0100
0001
0100
,
1000
0000
0000
0000
,
0100
0010
0100
0010
,
0001
0000
1000
0000
,
0001
1000
1001
1001
,
1001
0000
0000
0000
,
0110
0000
0000
0000
,
1000
0000
0000
0100
,
0010
0000
0000
0000
,
0001
0000
0000
0000
,
0010
0000
0000
0000
,
0100
0000
0000
1000
,
1001
0000
0100
0010
,
0020
0000
0000
0000
,
0000
0000
0000
0000
,
0230
0000
0000
0000
,
0000
0000
0000
0000
,
0302
0000
0000
0000
,
0000
0000
0000
0000
,
2003
0000
0000
0000
,
0001
0001
0001
3001
,
1001
0000
0000
0000
,
0001
1000
0000
0000
,
0001
1000
0000
0000
,
0001
1000
0000
0000
,
0001
1000
0000
0000
,
0010
0100
0000
0000
,
0010
0100
0000
0000
,
0010
0100
1000
0001
,
2002
0000
0000
0000
,
0000
0000
0000
3003
,
0110
0010
1000
0001
,
0110
0010
0001
0100
,
0110
0010
1000
0100
,
0110
0001
0100
0000
,
1001
1001
0000
0000
,
1001
1001
0000
0000
,
0110
0110
0000
0000
,
0011
1100
0000
0000
,
0220
0000
0000
0000
,
0330
0000
0000
0000;
